Такси 5 / Taxi 5 / 2018 / ДБ / TS (2018) TS[AD]

 
 Статистика раздачи 
Размер: 1.37 ГБ   |  Зарегистрирован: 19 май 2018, 00:48   |   .torrent скачан: 0 раз
Сидеров: 1  [ 0 байт/сек ]     Личеров: 0  [ 0 байт/сек ]  
  

Такси 5 / Taxi 5 / 2018 / ДБ / TS (2018) TS[AD]

Сообщение explosiveone » 19 май 2018, 00:48

Такси 5 / Taxi 5 / 2018 / ДБ / TS (2018) TS

Производство: Франция, EuropaCorp, T5 Production, ARP Sélection
Жанр: Боевик, Комедия, Криминал, Приключения

Режиссер: Франк Гастамбид
Актеры: Франк Гастамбид, Малик Бенталха, Бернар Фарси, Сальваторе Эспозито, Эдуард Монтут, Сабрина Уазани, Ануар Тубали, Сисси Дюпарк

Описание:
Экс-комиссар Жибер, ставший самым непутевым в истории города мэром Марселя, поручает переведенному из столицы новобранцу Сильвану Маро разобраться с неуловимой «бандой итальянцев» на Ferrari. Чтобы остановить их, Маро, суперкопу и суперводителю, приходится объединиться с племянником Даниэля. Парню досталось знаменитое белое такси дяди, но не его талант.

http://www.imdb.com/title/tt7238392/?ref_=plg_rt_1
Возраст: 18+ (зрителям, достигшим 18 лет. запрещено для детей)
Рейтинг MPAA: этот продукт не был классифицирован
Дата мировой премьеры: 7.04.2018
Дата российской премьеры: 10.05.2018

Релиз от: KOSHARA
Продолжительность: 01:38:57
Качество видео: TS
Перевод: Дублированный
Субтитры: Отсутствуют
Реклама: Присутствуют вставки голосовой и текстовой рекламы!

Видео: Xvid, 720x304, ~1581Kbps
Аудио: AC3, 2 ch, 384Kbps
Код: Выделить всё
Полное имя                               : E:\video\Taks1.5.2018.D.TS.14OOMB.avi
Формат                                   : AVI
Формат/Информация                        : Audio Video Interleave
Размер файла                             : 1,37 Гбайт
Продолжительность                        : 1 ч. 38 м.
Общий поток                              : 1977 Кбит/сек
Программа кодирования                    : VirtualDubMod 1.5.10.3 | [url=http://www.virtualdub-fr.org]www.virtualdub-fr.org[/url] || (build 2550/release)
Библиотека кодирования                   : VirtualDubMod build 2550/release

Видео
Идентификатор                            : 0
Формат                                   : MPEG-4 Visual
Профиль формата                          : Advanced [email protected]
Настройки формата                        : BVOP2
Параметр BVOP формата                    : 2
Параметр QPel формата                    : Нет
Параметр GMC формата                     : Без точки перехода
Параметр матрицы формата                 : Default (MPEG)
Идентификатор кодека                     : XVID
Идентификатор кодека/Подсказка           : XviD
Продолжительность                        : 1 ч. 38 м.
Битрейт                                  : 1582 Кбит/сек
Ширина                                   : 720 пикселей
Высота                                   : 304 пикселя
Соотношение сторон                       : 2,35:1
Частота кадров                           : 29,970 (30000/1001) кадров/сек
Цветовое пространство                    : YUV
Субдискретизация насыщенности            : 4:2:0
Битовая глубина                          : 8 бит
Тип развёртки                            : Прогрессивная
Метод сжатия                             : С потерями
Бит/(Пиксели*Кадры)                      : 0.241
Размер потока                            : 1,09 Гбайт (80%)
Библиотека кодирования                   : XviD 1.2.1 (UTC 2008-12-04)

Аудио
Идентификатор                            : 1
Формат                                   : AC-3
Формат/Информация                        : Audio Coding 3
Идентификатор кодека                     : 2000
Продолжительность                        : 1 ч. 38 м.
Вид битрейта                             : Постоянный
Битрейт                                  : 384 Кбит/сек
Каналы                                   : 2 канала
Расположение каналов                     : Front: L R
Частота                                  : 48,0 КГц
Частота кадров                           : 31,250 кадров/сек (1536 SPF)
Битовая глубина                          : 16 бит
Метод сжатия                             : С потерями
Размер потока                            : 272 Мбайт (19%)
Выравнивание                             : Разделение по промежуткам
Продолжительность промежутка             : 33  мс. (1,00 видеокадр)
Время предзагрузки промежутка            : 500  мс.
ServiceKind/String                       : Complete Main

Скриншоты:







Время раздачи: 24/7 (до появления первых 3-5 скачавших)
 
Не забывайте говорить Спасибо. Не уходите с раздачи!   
Торрент: Зарегистрирован [19 май 2018, 00:48] Для скачивания .torrent
необходима регистрация
Или скачать с помощью
MediaGet
Статус:
Проверен
 
.torrent скачан: 0 раз
Хэш: ffc1f1d720299c6c85c44e4a7234eeed92c2a7b2
Размер: 1.37 ГБ (1 467 691 008 байт)
Стать Автором раздачи
 
 
Раздал: 100 ГБ
Скачал: 0 байт
Ратио: Seed.
Сообщения: 100197
Зарегистрирован: 09 апр 2015, 22:31


Вернуться в Видео на модерации

Кто сейчас на конференции

Сейчас эту тему просматривают: нет зарегистрированных пользователей и гости: 1

Ресурс не предоставляет электронные версии произведений, а занимается лишь коллекционированием и каталогизацией ссылок, присылаемых и публикуемых на форуме нашими читателями. Если вы являетесь правообладателем какого-либо представленного материала и не желаете чтобы ссылка на него находилась в нашем каталоге, свяжитесь с нами и мы незамедлительно удалим её. Файлы для обмена на трекере предоставлены пользователями сайта, и администрация не несёт ответственности за их содержание. Просьба не заливать файлы, защищенные авторскими правами, а также файлы нелегального содержания!