Высокие ставки: Реванш / Сезон: 2 / Серии: 1-16 из 16 (Максим Бриус) [2017, драма, криминал, WEBRip]

 
 Статистика раздачи 
Размер: 9.41 ГБ   |  Зарегистрирован: 14 мар 2018, 01:01   |   .torrent скачан: 0 раз
Сидеров: 1  [ 0 байт/сек ]     Личеров: 0  [ 0 байт/сек ]  
  

Высокие ставки: Реванш / Сезон: 2 / Серии: 1-16 из 16 (Максим Бриус) [2017, драма, криминал, WEBRip]

Сообщение Nakazhu » 14 мар 2018, 01:01

Высокие ставки: Реванш

Год выпуска: 2017
Производство: Триикс Медиа
Жанр: драма, криминал
Продолжительность: 00:48:04
Субтитры: нет
Режиссёр: Максим Бриус
В ролях: Алексей Нилов, Лукерия Ильяшенко, Максим Дахненко, Роман Павлушев, Валентин Кузнецов, Екатерина Кашина, Александр Дергапутский, Нина Петровская, Мария Жиганова, Екатерина Полякова и др.
Описание: В современном мире подпольного казино происходят серьезные перемены. На первый план выходят азартные онлайн-игры, привлекая наибольший ажиотаж и наибольшие ставки. Бандит старой закалки Юрий Сергеев сталкивается с молодой и расчетливой конкуренткой Глорией, которая намерена построить свою преступную бизнес-империю...
В современном мире подпольного казино происходят серьезные перемены. На первый план выходят азартные онлайн-игры, привлекая наибольший ажиотаж и наибольшие ставки. Бандит старой закалки Юрий Сергеев сталкивается с молодой и расчетливой конкуренткой Глорией, которая намерена построить свою преступную бизнес-империю...
Сэмпл: http://multi-up.com/1189859
Релиз от: Алехаndr
Качество: WEBRip
Формат: AVI
Видео кодек: XviD
Аудио кодек: AC3
Видео: 720x400 (16:9), 25.000 fps, XviD, 1543 Kbps, 0.21 bits/pixel
Аудио: 48 kHz, AC3 Dolby Digital, 2 ch, 192 Kbps
Реклама: Нет
General
Complete name : Downloads\Высокие ставки. Реванш (2017).by.Алехаndr\Серия 01.by.Алехаndr.avi
Format : AVI
Format/Info : Audio Video Interleave
File size : 601 MiB
Duration : 48mn 4s
Overall bit rate : 1 747 Kbps
Video #0
ID : 0
Format : MPEG-4 Visual
Format settings, BVOP : No
Format settings, QPel : No
Format settings, GMC : No warppoints
Format settings, Matrix : Default (H.263)
Codec ID : FMP4
Duration : 48mn 4s
Bit rate : 1 543 Kbps
Width : 720 pixels
Height : 400 pixels
Display aspect ratio : 16:9
Frame rate : 25.000 fps
Color space : YUV
Chroma subsampling : 4:2:0
Bit depth : 8 bits
Scan type : Progressive
Compression mode : Lossy
Bits/(Pixel*Frame) : 0.214
Stream size : 531 MiB (88%)
Writing library : Lavc57.89.100
Audio #1
ID : 1
Format : AC-3
Format/Info : Audio Coding 3
Mode extension : CM (complete main)
Format settings, Endianness : Big
Codec ID : 2000
Duration : 48mn 4s
Bit rate mode : Constant
Bit rate : 192 Kbps
Channel(s) : 2 channels
Channel positions : Front: L R
Sampling rate : 48.0 KHz
Bit depth : 16 bits
Compression mode : Lossy
Stream size : 66.0 MiB (11%)
Alignment : Aligned on interleaves
Interleave, duration : 32 ms (0.80 video frame)
Предыдущие и альтернативные раздачи
 
Не забывайте говорить Спасибо. Не уходите с раздачи!   
Торрент: Зарегистрирован [14 мар 2018, 01:01] Для скачивания .torrent
необходима регистрация
Или скачать с помощью
MediaGet
Статус:
Проверен
 
.torrent скачан: 0 раз
Хэш: 2a993e7b0c98ca9b161e57f142f8d7e5d43fa80f
Размер: 9.41 ГБ (10 099 913 526 байт)
Стать Автором раздачи
 
 
Раздал: 0 байт
Скачал: 0 байт
Ратио: Inf.
Сообщения: 472467
Зарегистрирован: 17 апр 2014, 13:57


Вернуться в Отечественные сериалы

Кто сейчас на конференции

Сейчас эту тему просматривают: нет зарегистрированных пользователей и гости: 1

Ресурс не предоставляет электронные версии произведений, а занимается лишь коллекционированием и каталогизацией ссылок, присылаемых и публикуемых на форуме нашими читателями. Если вы являетесь правообладателем какого-либо представленного материала и не желаете чтобы ссылка на него находилась в нашем каталоге, свяжитесь с нами и мы незамедлительно удалим её. Файлы для обмена на трекере предоставлены пользователями сайта, и администрация не несёт ответственности за их содержание. Просьба не заливать файлы, защищенные авторскими правами, а также файлы нелегального содержания!
cron