Тигр жив / Tiger Zinda Hai (2017) TS

 
 Статистика раздачи 
Размер: 1.92 ГБ   |  Зарегистрирован: 21 янв 2018, 23:36   |   .torrent скачан: 0 раз
Сидеров: 1  [ 0 байт/сек ]     Личеров: 0  [ 0 байт/сек ]  
  

Тигр жив / Tiger Zinda Hai (2017) TS

Сообщение apple2000 » 21 янв 2018, 23:36

Тигр жив / Tiger Zinda Hai (2017) TS

Производство: Индия
Жанр: Боевик, Триллер, Приключения

Режиссер: Али Аббас Зафар
Продюсер: Адитья Чопра, Jamal Araissi, Судханшу Кумар
Актеры: Салман Кхан, Катрина Каиф, Пареш Раваль,Энгэд Беди, Эрдал Бешикчиолу ,Захари Соффин ,Кумуд Мишра

Описание:
Террористическая организация захватывает в плен 25 индийских медсестёр в Икрите. Правительство Индии решается на радикальные меры: разыскать и поручить миссию по их освобождению некогда лучшему агенту АВР – Авинашу Ратхору, который вот уже 8 лет считается погибшим во время задания на Кубе…

http://www.imdb.com/title/tt5956100/?ref_=plg_rt_1
Дата мировой премьеры: 22 декабря 2017
Дата российской премьеры: 15 февраля 2018

Релиз от: Honey&Haseena

Продолжительность: 02:32:10
Качество видео: TS
Перевод: Многоголосый закадровый, профессиональный
Озвучка: Маргарита Сахно, Маргарита Корш, Кирилл Патрино, Станислав Черсков, Денис Строев, Константин Федосеев и Андрей Стакионис
Перевод с хинди: Honey&Haseena
Звукорежиссёр: Михаил Шорыгин
Субтитры: Есть (на песни)

Видео: Xvid, 720x400, ~1600 Kbps
Аудио: AAC, 2 ch, 192 Kbps
Код: Выделить всё
Общее
Полное имя                               : J:\Ek.Tha.Tiger.2.TS.avi
Формат                                   : AVI
Формат/Информация                        : Audio Video Interleave
Профиль формата                          : OpenDML
Размер файла                             : 1,92 Гбайт
Продолжительность                        : 2 ч. 32 м.
Режим общего битрейта                    : Переменный
Общий поток                              : 1807 Кбит/сек
Программа кодирования                    : Lavf57.71.100

Видео
Идентификатор                            : 0
Формат                                   : MPEG-4 Visual
Профиль формата                          : Advanced [email protected]
Параметр BVOP формата                    : 1
Параметр QPel формата                    : Нет
Параметр GMC формата                     : Без точки перехода
Параметр матрицы формата                 : Default (H.263)
Идентификатор кодека                     : XVID
Идентификатор кодека/Подсказка           : XviD
Продолжительность                        : 2 ч. 32 м.
Битрейт                                  : 1600 Кбит/сек
Ширина                                   : 720 пикселей
Высота                                   : 400 пикселей
Соотношение сторон                       : 2,35:1
Частота кадров                           : 29,970 (30000/1001) кадров/сек
Цветовое пространство                    : YUV
Субдискретизация насыщенности            : 4:2:0
Битовая глубина                          : 8 бит
Тип развёртки                            : Прогрессивная
Метод сжатия                             : С потерями
Бит/(Пиксели*Кадры)                      : 0.185
Размер потока                            : 1,70 Гбайт (89%)
Библиотека кодирования                   : XviD 67

Аудио
Идентификатор                            : 1
Формат                                   : AAC
Формат/Информация                        : Advanced Audio Codec
Версия формата                           : Version 4
Профиль формата                          : LC
Режим смешивания                         : ADTS
Идентификатор кодека                     : FF
Продолжительность                        : 2 ч. 32 м.
Вид битрейта                             : Переменный
Битрейт                                  : 192 Кбит/сек
Каналы                                   : 2 канала
Расположение каналов                     : Front: L R
Частота                                  : 48,0 КГц
Частота кадров                           : 46,875 кадров/сек (1024 spf)
Метод сжатия                             : С потерями
Размер потока                            : 209 Мбайт (11%)
Выравнивание                             : Соединение по промежуткам
Продолжительность промежутка             : 21  мс. (0,64 видеокадр)

Скриншоты:




Время раздачи: Пн-Пт с 18:00 до 22:00, Сб-Вс с 09:00 до 22:30 (до появления первых 3-5 скачавших)
 
Не забывайте говорить Спасибо. Не уходите с раздачи!   
Торрент: Зарегистрирован [21 янв 2018, 23:36] Для скачивания .torrent
необходима регистрация
Или скачать с помощью
MediaGet
Статус:
Проверен
 
.torrent скачан: 0 раз
Хэш: 73611a1a9fa34f89fa83e80fd7067348732bbc9a
Размер: 1.92 ГБ (2 062 615 780 байт)
Стать Автором раздачи
 
 
Раздал: 0 байт
Скачал: 0 байт
Ратио: Inf.
Сообщения: 31155
Зарегистрирован: 05 окт 2014, 15:23


Вернуться в Видео на модерации

Кто сейчас на конференции

Сейчас эту тему просматривают: нет зарегистрированных пользователей и гости: 1

Ресурс не предоставляет электронные версии произведений, а занимается лишь коллекционированием и каталогизацией ссылок, присылаемых и публикуемых на форуме нашими читателями. Если вы являетесь правообладателем какого-либо представленного материала и не желаете чтобы ссылка на него находилась в нашем каталоге, свяжитесь с нами и мы незамедлительно удалим её. Файлы для обмена на трекере предоставлены пользователями сайта, и администрация не несёт ответственности за их содержание. Просьба не заливать файлы, защищенные авторскими правами, а также файлы нелегального содержания!