Чужой: Завет / Alien: Covenant (2017) BDRip [Line]

 
 Статистика раздачи 
Размер: 2.18 ГБ   |  Зарегистрирован: 18 авг 2017, 00:05   |   .torrent скачан: 0 раз
Сидеров: 1  [ 0 байт/сек ]     Личеров: 0  [ 0 байт/сек ]  
  

Чужой: Завет / Alien: Covenant (2017) BDRip [Line]

Сообщение Nasty » 18 авг 2017, 00:05

Чужой: Завет / Alien: Covenant (2017) BDRip [Line]

Производство: США, Великобритания, Австралия, Новая Зеландия, Канада / 20th Century Fox Film Corporation, Brandywine Productions Ltd., Scott Free Productions
Жанр: Фантастика, Ужасы, Триллер

Режиссер: Ридли Скотт
Актеры: Майкл Фассбендер, Кэтрин Уотерстон, Билли Крадап, Дэнни МакБрайд, Демиан Бишир, Кармен Эджого, Джусси Смоллетт, Калли Эрнандес, Эми Саймец, Натаниель Дин, Александр Инглэнд, Бенжамин Ригби, Ули Латукефу, Тесс Хобрич, Лорелей Кинг

Описание:
Во время обследования удаленной планеты, расположенной на другой стороне галактики, экипаж колониального корабля «Завет» обнаруживает, что то, что они изначально приняли за неизведанный рай, на самом деле — тёмный и опасный мир. Его единственный житель — синтетический андроид Дэвид, оставшийся в живых после обреченной экспедиционной миссии «Прометей».

http://www.imdb.com/title/tt2316204/?ref_=plg_rt_1
Возраст: 18+ (зрителям, достигшим 18 лет. запрещено для детей)
Рейтинг MPAA: R (лицам до 17 лет обязательно присутствие взрослого)
Дата мировой премьеры: 4 мая 2017
Дата российской премьеры: 18 мая 2017

Релиз от: Twi7ter

Продолжительность: 02:02:03
Качество видео: BDRip
Перевод: Дублированный (Line)
Субтитры: Русские (отдельным файлом)

Видео: Xvid, 720x304, ~2100 Kbps
Аудио: AC3, 6 ch, 448 Kbps
Код: Выделить всё
General
Complete name                            : /media/win/TORRENT/UPLOAD TORRENTS/Chuzhoj.Zavet.2017.D.Line.BDRip.2100Mb/Chuzhoj.Zavet.2017.D.Line.BDRip.2100Mb.avi
Format                                   : AVI
Format/Info                              : Audio Video Interleave
Format profile                           : OpenDML
File size                                : 2.18 GiB
Duration                                 : 2 h 2 min
Overall bit rate                         : 2 561 kb/s
Movie name                               : Chuzhoj.Zavet.2017.D.Line.BDRip.2100Mb_ExKinoRay_by_Twi7ter
Director                                 : Twi7ter
Genre                                    : Fantasy/Thriller/Humor
Writing application                      : VirtualDubMod 1.5.10.3 (build 2550/release)
Original source form/Name                : Movie

Video
ID                                       : 0
Format                                   : MPEG-4 Visual
Format profile                           : Advanced [email protected]
Format settings, BVOP                    : 2
Format settings, QPel                    : No
Format settings, GMC                     : No warppoints
Format settings, Matrix                  : Custom
Codec ID                                 : XVID
Codec ID/Hint                            : XviD
Duration                                 : 2 h 2 min
Bit rate                                 : 2 101 kb/s
Width                                    : 720 pixels
Height                                   : 304 pixels
Display aspect ratio                     : 2.35:1
Frame rate                               : 23.976 (24000/1001) FPS
Color space                              : YUV
Chroma subsampling                       : 4:2:0
Bit depth                                : 8 bits
Scan type                                : Progressive
Compression mode                         : Lossy
Bits/(Pixel*Frame)                       : 0.400
Stream size                              : 1.79 GiB (82%)
Writing library                          : XviD 73

Audio
ID                                       : 1
Format                                   : AC-3
Format/Info                              : Audio Coding 3
Format settings, Endianness              : Big
Codec ID                                 : 2000
Duration                                 : 2 h 2 min
Bit rate mode                            : Constant
Bit rate                                 : 448 kb/s
Channel(s)                               : 6 channels
Channel positions                        : Front: L C R, Side: L R, LFE
Sampling rate                            : 48.0 kHz
Frame rate                               : 31.250 FPS (1536 SPF)
Bit depth                                : 16 bits
Compression mode                         : Lossy
Stream size                              : 391 MiB (17%)
Alignment                                : Aligned on interleaves
Interleave, duration                     : 42  ms (1.00 video frame)
Interleave, preload duration             : 512  ms
Service kind                             : Complete Main

Скриншоты:




Время раздачи: с 09:00 до 01:00 до пяти скачавших (до появления первых 3-5 скачавших)
 
Не забывайте говорить Спасибо. Не уходите с раздачи!   
Торрент: Зарегистрирован [18 авг 2017, 00:05] Для скачивания .torrent
необходима регистрация
Или скачать с помощью
MediaGet
Статус:
Проверен
 
.torrent скачан: 0 раз
Хэш: 7320d2547d182d223f7c673b5f2a1d7c430b4e44
Размер: 2.18 ГБ (2 344 324 626 байт)
Стать Автором раздачи
 
 
Раздал: 100 ГБ
Скачал: 0 байт
Ратио: Seed.
Сообщения: 22410
Зарегистрирован: 09 апр 2015, 19:56


Вернуться в Видео на модерации

Кто сейчас на конференции

Сейчас эту тему просматривают: нет зарегистрированных пользователей и гости: 1

Ресурс не предоставляет электронные версии произведений, а занимается лишь коллекционированием и каталогизацией ссылок, присылаемых и публикуемых на форуме нашими читателями. Если вы являетесь правообладателем какого-либо представленного материала и не желаете чтобы ссылка на него находилась в нашем каталоге, свяжитесь с нами и мы незамедлительно удалим её. Файлы для обмена на трекере предоставлены пользователями сайта, и администрация не несёт ответственности за их содержание. Просьба не заливать файлы, защищенные авторскими правами, а также файлы нелегального содержания!