Чужой: Завет / Alien: Covenant (2017) HDRip [Line]

 
 Статистика раздачи 
Размер: 1.46 ГБ   |  Зарегистрирован: 17 авг 2017, 23:56   |   .torrent скачан: 0 раз
Сидеров: 1  [ 0 байт/сек ]     Личеров: 0  [ 0 байт/сек ]  
  

Чужой: Завет / Alien: Covenant (2017) HDRip [Line]

Сообщение Nasty » 17 авг 2017, 23:56

Чужой: Завет / Alien: Covenant (2017) HDRip [Line]

Производство: США, Великобритания, Австралия, Новая Зеландия, Канада / 20th Century Fox Film Corporation, Brandywine Productions Ltd., Scott Free Productions
Жанр: Фантастика, Ужасы, Триллер

Режиссер: Ридли Скотт
Актеры: Майкл Фассбендер, Кэтрин Уотерстон, Билли Крадап, Дэнни МакБрайд, Демиан Бишир, Кармен Эджого, Джусси Смоллетт, Калли Эрнандес, Эми Саймец, Натаниель Дин, Александр Инглэнд

Описание:
Во время обследования удаленной планеты, расположенной на другой стороне галактики, экипаж колониального корабля «Завет» обнаруживает, что то, что они изначально приняли за неизведанный рай, на самом деле — тёмный и опасный мир. Его единственный житель — синтетический андроид Дэвид, оставшийся в живых после обреченной экспедиционной миссии «Прометей».

http://www.imdb.com/title/tt2316204/?ref_=plg_rt_1
Возраст: 18+ (зрителям, достигшим 18 лет. запрещено для детей)
Рейтинг MPAA: R (лицам до 17 лет обязательно присутствие взрослого)
Дата мировой премьеры: 4 мая 2017
Дата российской премьеры: 18 мая 2017

Релиз от: Twi7ter

Продолжительность: 02:02:03
Качество видео: HDRip
Перевод: Дублированный (Line)
Субтитры: Русские (отдельным файлом)

Видео: Xvid, 720x304, ~1512 Kbps
Аудио: AC3, 2 ch, 192 Kbps
Код: Выделить всё
General
Complete name                            : /media/win/TORRENT/UPLOAD TORRENTS/Chuzhoj.Zavet.2017.D.Line.BDRip./Chuzhoj.Zavet.2017.D.Line.BDRip.avi
Format                                   : AVI
Format/Info                              : Audio Video Interleave
File size                                : 1.46 GiB
Duration                                 : 2 h 2 min
Overall bit rate                         : 1 713 kb/s
Movie name                               : Chuzhoj.Zavet.2017.D.Line.BDRip.1400Mb_ExKinoRay_by_Twi7ter / Chuzhoj.Zavet.2017.P.BDRip.1400Mb_ExKinoRay_by_Twi7ter
Director                                 : Twi7ter / Twi7ter
Genre                                    : Fantasy/Thriller/Humor / Fantasy/Thriller/Humor
Original source form/Name                : Movie / Movie

Video
ID                                       : 0
Format                                   : MPEG-4 Visual
Format profile                           : Advanced [email protected]
Format settings, BVOP                    : 2
Format settings, QPel                    : No
Format settings, GMC                     : No warppoints
Format settings, Matrix                  : Custom
Codec ID                                 : XVID
Codec ID/Hint                            : XviD
Duration                                 : 2 h 2 min
Bit rate                                 : 1 512 kb/s
Width                                    : 720 pixels
Height                                   : 304 pixels
Display aspect ratio                     : 2.35:1
Frame rate                               : 23.976 (24000/1001) FPS
Color space                              : YUV
Chroma subsampling                       : 4:2:0
Bit depth                                : 8 bits
Scan type                                : Progressive
Compression mode                         : Lossy
Bits/(Pixel*Frame)                       : 0.288
Stream size                              : 1.29 GiB (88%)
Writing library                          : XviD 73

Audio
ID                                       : 1
Format                                   : AC-3
Format/Info                              : Audio Coding 3
Format settings, Endianness              : Big
Codec ID                                 : 2000
Duration                                 : 2 h 2 min
Bit rate mode                            : Constant
Bit rate                                 : 192 kb/s
Channel(s)                               : 2 channels
Channel positions                        : Front: L R
Sampling rate                            : 48.0 kHz
Frame rate                               : 31.250 FPS (1536 SPF)
Bit depth                                : 16 bits
Compression mode                         : Lossy
Stream size                              : 168 MiB (11%)
Alignment                                : Aligned on interleaves
Interleave, duration                     : 42  ms (1.00 video frame)
Interleave, preload duration             : 512  ms
Service kind                             : Complete Main

Скриншоты:




Время раздачи: с 09:00 до 01:00 до пяти скачавших (до появления первых 3-5 скачавших)
 
Не забывайте говорить Спасибо. Не уходите с раздачи!   
Торрент: Зарегистрирован [17 авг 2017, 23:56] Для скачивания .torrent
необходима регистрация
Или скачать с помощью
MediaGet
Статус:
Проверен
 
.torrent скачан: 0 раз
Хэш: 39a0f1df4d3ca36d86d6ccfef4de4ea506e2c4eb
Размер: 1.46 ГБ (1 568 586 196 байт)
Стать Автором раздачи
 
 
Раздал: 100 ГБ
Скачал: 0 байт
Ратио: Seed.
Сообщения: 20966
Зарегистрирован: 09 апр 2015, 19:56


Вернуться в Видео на модерации

Кто сейчас на конференции

Сейчас эту тему просматривают: нет зарегистрированных пользователей и гости: 1

Ресурс не предоставляет электронные версии произведений, а занимается лишь коллекционированием и каталогизацией ссылок, присылаемых и публикуемых на форуме нашими читателями. Если вы являетесь правообладателем какого-либо представленного материала и не желаете чтобы ссылка на него находилась в нашем каталоге, свяжитесь с нами и мы незамедлительно удалим её. Файлы для обмена на трекере предоставлены пользователями сайта, и администрация не несёт ответственности за их содержание. Просьба не заливать файлы, защищенные авторскими правами, а также файлы нелегального содержания!