Форсаж 8 / The Fate of the Furious (2017) WEBRip [H.264/1080p-LQ] [звук с TS]

 
 Статистика раздачи 
Размер: 4.9 ГБ   |  Зарегистрирован: 19 май 2017, 11:11   |   .torrent скачан: 0 раз
Сидеров: 1  [ 0 байт/сек ]     Личеров: 0  [ 0 байт/сек ]  
  

Форсаж 8 / The Fate of the Furious (2017) WEBRip [H.264/1080p-LQ] [звук с TS]

Сообщение Nasty » 19 май 2017, 11:11

Форсаж 8 / The Fate of the Furious (2017) WEBRip [H.264/1080p-LQ]

Производство: США, One Race Films, Original Film, Пифагор, Universal Pictures
Жанр: Боевик, Триллер, Криминал

Режиссер: Ф. Гэри Грей
Продюсер: Рикардо Дель Рио, Вин Дизель, Майкл Фоттрел
Актеры: Вин Дизель, Дуэйн Джонсон, Джейсон Стэйтем, Мишель Родригес, Тайриз Гибсон, Лудакрис, Натали Эммануэль, Курт Рассел, Скотт Иствуд, Шарлиз Терон

Описание:
Пристегните ремни — гонка продолжается. Гавана, Берлин, Нью-Йорк, для самой крутой команды в мире нет ничего невозможного, пока они вместе. Но когда на их пути окажется одна из самых красивых женщин на планете и по совместительству королева киберпреступности, дороги друзей разойдутся…



Возраст: 12+ (зрителям, достигшим 12 лет)
Рейтинг MPAA: PG-13 (детям до 13 лет просмотр нежелателен)
Дата мировой премьеры: 4 апреля 2017
Дата российской премьеры: 13 апреля 2017, «UPI»

Релиз от: NNMClub
Продолжительность: 02:15:53
Качество видео: WEBRip
Перевод: Дублированный (Звук с TS)
Субтитры: Английские (отключаемые), Корейские (вшитие неотключаемые)

Видео: AVC/H.264, 1920x800 (2.40:1), 4700 Kbps
Аудио »1: 48 kHz, AC3 Dolby Digital, 2/0 (L,R) ch, ~256 kbps (Русский)
Аудио »2: 48 kHz, AC3 Dolby Digital, 2/0 (L,R) ch, ~256 kbps (Английский)
Код: Выделить всё
Общее
Уникальный идентификатор                 : 197014722341330395479751277869806490370 (0x9437A7C3542A57DE82EC69A9C4699302)
Полное имя                               : D:\Форсаж.8.2017.WEBRip.[1080p].NNMClub.mkv
Формат                                   : Matroska
Версия формата                           : Version 2
Размер файла                             : 4,90 Гбайт
Продолжительность                        : 2 ч. 15 м.
Общий поток                              : 5165 Кбит/сек
Название фильма                          : Форсаж.8.2017.WEBRip.[1080p].NNMClub
Дата кодирования                         : UTC 2017-05-17 19:12:42
Программа кодирования                    : mkvmerge v8.3.0 ('Over the Horizon') 64bit
Библиотека кодирования                   : libebml v1.3.1 + libmatroska v1.4.2

Видео
Идентификатор                            : 1
Формат                                   : AVC
Формат/Информация                        : Advanced Video Codec
Профиль формата                          :
Параметр CABAC формата                   : Да
Параметр ReFrames формата                : 4 кадра
Идентификатор кодека                     : V_MPEG4/ISO/AVC
Продолжительность                        : 2 ч. 15 м.
Битрейт                                  : 4700 Кбит/сек
Ширина                                   : 1920 пикселей
Высота                                   : 800 пикселей
Соотношение сторон                       : 2,40:1
Режим частоты кадров                     : Постоянный
Частота кадров                           : 30,303 кадров/сек
Цветовое пространство                    : YUV
Субдискретизация насыщенности            : 4:2:0
Битовая глубина                          : 8 бит
Тип развёртки                            : Прогрессивная
Бит/(Пиксели*Кадры)                      : 0.101
Размер потока                            : 4,32 Гбайт (88%)
Заголовок                                : Форсаж.8.2017.WEBRip.[1080p].NNMClub
Библиотека кодирования                   : x264 core 142 r2479 dd79a61
Настройки программы                      : cabac=1 / ref=1 / deblock=1:0:0 / analyse=0x3:0x113 / me=hex / subme=2 / psy=1 / psy_rd=1.00:0.00 / mixed_ref=0 / me_range=16 / chroma_me=1 / trellis=0 / 8x8dct=1 / cqm=0 / deadzone=21,11 / fast_pskip=1 / chroma_qp_offset=0 / threads=12 / lookahead_threads=4 / sliced_threads=0 / nr=0 / decimate=1 / interlaced=0 / bluray_compat=0 / constrained_intra=0 / bframes=3 / b_pyramid=2 / b_adapt=1 / b_bias=0 / direct=1 / weightb=1 / open_gop=0 / weightp=1 / keyint=300 / keyint_min=30 / scenecut=40 / intra_refresh=0 / rc_lookahead=10 / rc=abr / mbtree=1 / bitrate=4700 / ratetol=1.0 / qcomp=0.60 / qpmin=0 / qpmax=69 / qpstep=4 / vbv_maxrate=62500 / vbv_bufsize=78125 / nal_hrd=none / filler=0 / ip_ratio=1.40 / aq=1:1.00
Язык                                     : English
Default                                  : Да
Forced                                   : Нет
Цветовой диапазон                        : Limited
Основные цвета                           : BT.709
Характеристики трансфера                 : BT.709
Коэффициенты матрицы                     : BT.709

Аудио #1
Идентификатор                            : 2
Формат                                   : AC-3
Формат/Информация                        : Audio Coding 3
Расширение режима                        : CM (complete main)
Параметр Endianness формата              : Big
Идентификатор кодека                     : A_AC3
Продолжительность                        : 2 ч. 15 м.
Вид битрейта                             : Постоянный
Битрейт                                  : 256 Кбит/сек
Каналы                                   : 2 канала
Расположение каналов                     : Front: L R
Частота                                  : 48,0 КГц
Метод сжатия                             : С потерями
Задержка видео                           : -109 мс.
Размер потока                            : 249 Мбайт (5%)
Заголовок                                : TS
Язык                                     : Russian
Default                                  : Да
Forced                                   : Нет

Аудио #2
Идентификатор                            : 3
Формат                                   : AC-3
Формат/Информация                        : Audio Coding 3
Расширение режима                        : CM (complete main)
Параметр Endianness формата              : Big
Идентификатор кодека                     : A_AC3
Продолжительность                        : 2 ч. 15 м.
Вид битрейта                             : Постоянный
Битрейт                                  : 256 Кбит/сек
Каналы                                   : 2 канала
Расположение каналов                     : Front: L R
Частота                                  : 48,0 КГц
Метод сжатия                             : С потерями
Задержка видео                           : -109 мс.
Размер потока                            : 249 Мбайт (5%)
Заголовок                                : Original
Язык                                     : English
Default                                  : Нет
Forced                                   : Нет

Текст
Идентификатор                            : 4
Формат                                   : UTF-8
Идентификатор кодека                     : S_TEXT/UTF8
Идентификатор кодека/Информация          : UTF-8 Plain Text
Заголовок                                : Full
Язык                                     : English
Default                                  : Нет
Forced                                   : Нет

Скриншоты:




Время раздачи: 24/7 (до появления первых 3-5 скачавших)
 
Не забывайте говорить Спасибо. Не уходите с раздачи!   
Торрент: Зарегистрирован [19 май 2017, 11:11] Для скачивания .torrent
необходима регистрация
Или скачать с помощью
MediaGet
Статус:
Проверен
 
.torrent скачан: 0 раз
Хэш: 80f2e2a729c8e0c2636ad7437ba0b4af2c7ea428
Размер: 4.9 ГБ (5 264 761 153 байт)
Стать Автором раздачи
 
 
Раздал: 100 ГБ
Скачал: 0 байт
Ратио: Seed.
Сообщения: 20966
Зарегистрирован: 09 апр 2015, 19:56


Вернуться в Видео на модерации

Кто сейчас на конференции

Сейчас эту тему просматривают: нет зарегистрированных пользователей и гости: 1

Ресурс не предоставляет электронные версии произведений, а занимается лишь коллекционированием и каталогизацией ссылок, присылаемых и публикуемых на форуме нашими читателями. Если вы являетесь правообладателем какого-либо представленного материала и не желаете чтобы ссылка на него находилась в нашем каталоге, свяжитесь с нами и мы незамедлительно удалим её. Файлы для обмена на трекере предоставлены пользователями сайта, и администрация не несёт ответственности за их содержание. Просьба не заливать файлы, защищенные авторскими правами, а также файлы нелегального содержания!
cron