Отцы и дочери / Fathers and Daughters (2015) HDRip [звук с TS]

 
 Статистика раздачи 
Размер: 1.46 ГБ   |  Зарегистрирован: 30 мар 2017, 20:59   |   .torrent скачан: 0 раз
Сидеров: 1  [ 0 байт/сек ]     Личеров: 0  [ 0 байт/сек ]  
  

Отцы и дочери / Fathers and Daughters (2015) HDRip [звук с TS]

Сообщение Ressler » 30 мар 2017, 20:59

Отцы и дочери / Fathers and Daughters (2015) HDRip

Производство: США, Италия
Жанр: Драма

Режиссер: Габриэле Муччино
Актеры: Аманда Сайфред, Джейн Фонда, Аарон Пол, Дайан Крюгер, Расселл Кроу, Райан Игголд, Брюс Гринвуд, Куавенжане Уоллис, Джанет МакТир, Октавия Спенсер

Описание:
История отца и дочери, живущих на Манхэттене. В прошлом персонаж Кроу — знаменитый писатель, вдовец и страдающий от психических расстройств человек — пытается вырастить 5-летнюю дочь и буквально не сойти с ума, ну а в настоящем, героиня Сейфрид, уже повзрослевшая дочка сражается с собственными демонами.


Релиз от: KOSHARA

Продолжительность: 01:57:08
Качество видео: HDRip
Перевод: Дублированный (звук с TS)
Субтитры: Отсутствуют
Реклама: Присутствуют аудио и видео вставки рекламы

Видео: Xvid, 720x304, ~ 1580 kbps
Аудио: AC3, 2 ch, 192 kbps
Код: Выделить всё
Общее
Полное имя                               : D:\Загрузки uTorrent\Fathers.and.Daughters.2O15.Dt.HDRip.14OOMB_KOSHARA.avi
Формат                                   : AVI
Формат/Информация                        : Audio Video Interleave
Размер файла                             : 1,46 Гбайт
Продолжительность                        : 1 ч. 57 м.
Общий поток                              : 1781 Кбит/сек
Программа кодирования                    : VirtualDubMod 1.5.10.2 (build 2540/release)
Библиотека кодирования                   : VirtualDubMod build 2540/release

Видео
Идентификатор                            : 0
Формат                                   : MPEG-4 Visual
Профиль формата                          : Advanced [email protected]
Параметр BVOP формата                    : 2
Параметр QPel формата                    : Нет
Параметр GMC формата                     : Без точки перехода
Параметр матрицы формата                 : Выборочная
Идентификатор кодека                     : XVID
Идентификатор кодека/Подсказка           : XviD
Продолжительность                        : 1 ч. 57 м.
Битрейт                                  : 1580 Кбит/сек
Ширина                                   : 720 пикселей
Высота                                   : 304 пикселя
Соотношение сторон                       : 2,35:1
Частота кадров                           : 23,976 (24000/1001) кадра/сек
Цветовое пространство                    : YUV
Субдискретизация насыщенности            : 4:2:0
Битовая глубина                          : 8 бит
Тип развёртки                            : Прогрессивная
Метод сжатия                             : С потерями
Бит/(Пиксели*Кадры)                      : 0.301
Размер потока                            : 1,29 Гбайт (89%)
Библиотека кодирования                   : XviD 1.2.1 (UTC 2008-12-04)

Аудио
Идентификатор                            : 1
Формат                                   : AC-3
Формат/Информация                        : Audio Coding 3
Расширение режима                        : CM (complete main)
Параметр Endianness формата              : Big
Идентификатор кодека                     : 2000
Продолжительность                        : 1 ч. 57 м.
Вид битрейта                             : Постоянный
Битрейт                                  : 192 Кбит/сек
Каналы                                   : 2 канала
Расположение каналов                     : Front: L R
Частота                                  : 48,0 КГц
Частота кадров                           : 31,250 кадров/сек (1536 spf)
Битовая глубина                          : 16 бит
Метод сжатия                             : С потерями
Размер потока                            : 161 Мбайт (11%)
Выравнивание                             : Разделение по промежуткам
Продолжительность промежутка             : 42  мс. (1,00 видеокадр)
Время предзагрузки промежутка            : 500  мс.

Скриншоты:




Время раздачи: 24/7 (до появления первых 3-5 скачавших)
 
Не забывайте говорить Спасибо. Не уходите с раздачи!   
Торрент: Зарегистрирован [30 мар 2017, 20:59] Для скачивания .torrent
необходима регистрация
Или скачать с помощью
MediaGet
Статус:
Проверен
 
.torrent скачан: 0 раз
Хэш: f288819b0ec1fe19d39545f3bac0aa93300fe55d
Размер: 1.46 ГБ (1 565 057 024 байт)
Стать Автором раздачи
 
 
Раздал: 100 ГБ
Скачал: 0 байт
Ратио: Seed.
Сообщения: 29984
Зарегистрирован: 09 апр 2015, 23:02


Вернуться в Видео на модерации

Кто сейчас на конференции

Сейчас эту тему просматривают: нет зарегистрированных пользователей и гости: 1

Ресурс не предоставляет электронные версии произведений, а занимается лишь коллекционированием и каталогизацией ссылок, присылаемых и публикуемых на форуме нашими читателями. Если вы являетесь правообладателем какого-либо представленного материала и не желаете чтобы ссылка на него находилась в нашем каталоге, свяжитесь с нами и мы незамедлительно удалим её. Файлы для обмена на трекере предоставлены пользователями сайта, и администрация не несёт ответственности за их содержание. Просьба не заливать файлы, защищенные авторскими правами, а также файлы нелегального содержания!
cron