Новогодний корпоратив / Office Christmas Party (2016) WEBRip [H.264/1080p-LQ] [Звук с CamRip]

 
 Статистика раздачи 
Размер: 4 ГБ   |  Зарегистрирован: 13 мар 2017, 13:02   |   .torrent скачан: 0 раз
Сидеров: 1  [ 0 байт/сек ]     Личеров: 0  [ 0 байт/сек ]  
  

Новогодний корпоратив / Office Christmas Party (2016) WEBRip [H.264/1080p-LQ] [Звук с CamRip]

Сообщение Ressler » 13 мар 2017, 13:02

Новогодний корпоратив / Office Christmas Party (2016) WEBRip [H.264/1080p-LQ]

Производство: США, Bluegrass Films, DreamWorks Pictures, DreamWorks SKG
Жанр: Комедия

Режиссер: Джош Гордон, Уилл Спек
Продюсер: Гаймон Кеседи, Дэниэл Раппапорт, Скотт Стубер
Актеры: Джейсон Бейтмен, Оливия Манн, ТиДжей Миллер, Дженнифер Энистон, Кейт МакКиннон, Кортни Б. Вэнс, Джиллиан Белл, Роб Кордри, Ванесса Байер, Рэндолл Парк

Описание:
Когда сестра героя, генеральный директор компании, угрожает брату закрыть его филиал, он устраивает эпическую рождественскую вечеринку, чтобы заполучить большого клиента и спасти фирму. Однако праздник выходит из-под контроля..



Возраст: 18+ (зрителям, достигшим 18 лет. запрещено для детей)
Рейтинг MPAA: R (лицам до 17 лет обязательно присутствие взрослого)
Дата мировой премьеры: 7 декабря 2016
Дата российской премьеры: 8 декабря 2016, «Централ Партнершип»
Дата выхода DVD/Blu-ray релиза: 10 Апреля 2017

Релиз от: KOSHARA

Продолжительность: 01:45:48
Качество видео: WEBRip
Перевод: Дублированный (Звук с CamRip)
Субтитры: Отсутствуют
Реклама: Присутствуют голосовые, видео и текстовые вставки рекламы

Видео: AVC/H.264, 1912x796 ~4926 Кбит/с
Аудио: AC3, 2 ch, 384 Кбит/с
Код:
General
Complete name                    : D:\NovoGodniY.KorPoratiFF.2016.WEBRip.1080p.mkv
Format                           : Matroska
File size                        : 4.00 GiB
Duration                         : 1h 45mn
Overall bit rate                 : 5 418 Kbps
Encoded date                     : UTC 2017-03-10 20:34:07
Writing application              : mkvmerge v8.3.0 ('Over the Horizon') 64bit
Writing library                  : libebml v1.3.1 + libmatroska v1.4.2

Video
ID                               : 1
Format                           : AVC
Format/Info                      : Advanced Video Codec
Format profile                   :
Format settings, CABAC           : Yes
Format settings, ReFrames        : 5 frames
Muxing mode                      : Container [email protected]
Codec ID                         : V_MPEG4/ISO/AVC
Duration                         : 1h 45mn
Bit rate                         : 4 926 Kbps
Width                            : 1 912 pixels
Height                           : 796 pixels
Display aspect ratio             : 2.40:1
Frame rate                       : 24.000 fps
Standard                         : Component
Resolution                       : 8 bits
Colorimetry                      : 4:2:0
Scan type                        : Progressive
Bits/(Pixel*Frame)               : 0.135
Stream size                      : 3.64 GiB (91%)
Language                         : Russian
Color primaries                  : BT.709-5, BT.1361, IEC 61966-2-4, SMPTE RP177
Transfer characteristics         : BT.709-5, BT.1361
Matrix coefficients              : BT.709-5, BT.1361, IEC 61966-2-4 709, SMPTE RP177

Audio
ID                               : 2
Format                           : AC-3
Format/Info                      : Audio Coding 3
Codec ID                         : A_AC3
Duration                         : 1h 45mn
Bit rate mode                    : Constant
Bit rate                         : 384 Kbps
Channel(s)                       : 2 channels
Channel positions                : L R
Sampling rate                    : 48.0 KHz
Stream size                      : 291 MiB (7%)

Скриншоты:



Время раздачи: 24/7 (до появления первых 3-5 скачавших)
 
Не забывайте говорить Спасибо. Не уходите с раздачи!   
Торрент: Зарегистрирован [13 мар 2017, 13:02] Для скачивания .torrent
необходима регистрация
Или скачать с помощью
MediaGet
Статус:
Проверен
 
.torrent скачан: 0 раз
Хэш: f4a16d1f65022da5c66b925d6b9dab0bd73f1707
Размер: 4 ГБ (4 299 637 554 байт)
Стать Автором раздачи
 
 
Раздал: 100 ГБ
Скачал: 0 байт
Ратио: Seed.
Сообщения: 29984
Зарегистрирован: 09 апр 2015, 23:02


Вернуться в Видео на модерации

Кто сейчас на конференции

Сейчас эту тему просматривают: нет зарегистрированных пользователей и гости: 1

Ресурс не предоставляет электронные версии произведений, а занимается лишь коллекционированием и каталогизацией ссылок, присылаемых и публикуемых на форуме нашими читателями. Если вы являетесь правообладателем какого-либо представленного материала и не желаете чтобы ссылка на него находилась в нашем каталоге, свяжитесь с нами и мы незамедлительно удалим её. Файлы для обмена на трекере предоставлены пользователями сайта, и администрация не несёт ответственности за их содержание. Просьба не заливать файлы, защищенные авторскими правами, а также файлы нелегального содержания!
cron