Почему он? / Why Him? (2016) DVDRip [Звук с TS]

 
 Статистика раздачи 
Размер: 1.46 ГБ   |  Зарегистрирован: 11 мар 2017, 23:42   |   .torrent скачан: 1 раз
Сидеров: 1  [ 0 байт/сек ]     Личеров: 0  [ 0 байт/сек ]  
  

Почему он? / Why Him? (2016) DVDRip [Звук с TS]

Сообщение Ressler » 11 мар 2017, 23:42

Почему он? / Why Him? (2016) DVDRip

Производство: США, Камбоджа, 20th Century Fox Film Corporation, 21 Laps Entertainment, Red Hour Films
Жанр: Комедия

Режиссер: Джон Гамбург
Продюсер: Стюарт Корнфелд, Дэн Ливайн, Шон Леви
Актеры: Зои Дойч, Джеймс Франко, Тэнджи Эмброуз, Седрик «Развлекатель», Боб Стефенсон, Брайан Крэнстон, Меган Маллалли, Зак Перлман, Гриффин Глюк, Джи Янг Хань

Описание:
Глава семейства вступает в противостояние с молодым и богатым парнем своей дочери.



Возраст: 16+ (зрителям, достигшим 16 лет)
Рейтинг MPAA: R (детям до 17 лет просмотр нежелателен)
Дата мировой премьеры: 17 декабря 2016
Дата российской премьеры: 12 января 2017 "Двадцатый Век Фокс СНГ"
Дата выхода DVD/Blu-ray релиза: 25 Апреля 2017

Релиз от: KOSHARA

Продолжительность: 01:51:56
Качество видео: DVDRip
Перевод: Дублированный (Звук с TS)
Вид субтитров: Отсутствуют
Реклама: Присутствуют голосовые, видео и текстовые вставки рекламы

Видео: XviD, 720x384, ~1661 kbps
Аудио: AC3, 2 ch, 192 kbps
Код:
\Pochemu.on.2016.Dt.DVDRip.avi
Format                      : AVI
Format/Info                 : Audio Video Interleave
File size                   : 1.46 GiB
Duration                    : 1 h 51 min
Overall bit rate            : 1 863 kb/s
Writing application         : VirtualDubMod 1.5.10.2 (build 2540/release)
Writing library             : VirtualDubMod build 2540/release

Video
ID                          : 0
Format                      : MPEG-4 Visual
Format profile              : Advanced [email protected]
Format settings, BVOP       : 2
Format settings, QPel       : No
Format settings, GMC        : No warppoints
Format settings, Matrix     : Default (MPEG)
Codec ID                    : XVID
Codec ID/Hint               : XviD
Duration                    : 1 h 51 min
Bit rate                    : 1 589 kb/s
Width                       : 720 pixels
Height                      : 384 pixels
Display aspect ratio        : 1.85:1
Frame rate                  : 23.976 (24000/1001) FPS
Color space                 : YUV
Chroma subsampling          : 4:2:0
Bit depth                   : 8 bits
Scan type                   : Progressive
Compression mode            : Lossy
Bits/(Pixel*Frame)          : 0.240
Stream size                 : 1.24 GiB (85%)
Writing library             : XviD 1.2.1 (UTC 2008-12-04)

Audio
ID                          : 1
Format                      : AC-3
Format/Info                 : Audio Coding 3
Mode extension              : CM (complete main)
Format settings, Endianness : Big
Codec ID                    : 2000
Duration                    : 1 h 51 min
Bit rate mode               : Constant
Bit rate                    : 192 kb/s
Channel(s)                  : 2 channels
Channel positions           : Front: L R
Sampling rate               : 48.0 kHz
Frame rate                  : 31.250 FPS (1536 spf)
Bit depth                   : 16 bits
Compression mode            : Lossy
Stream size                 : 154 MiB (10%)
Alignment                   : Split accross interleaves


Скриншоты:



Время раздачи: По мере возможности... (до появления первых 3-5 скачавших)
 
Не забывайте говорить Спасибо. Не уходите с раздачи!   
Торрент: Зарегистрирован [11 мар 2017, 23:42] Для скачивания .torrent
необходима регистрация
Или скачать с помощью
MediaGet
Статус:
Проверен
 
.torrent скачан: 1 раз
Хэш: 81b5ad979c6fa5776257c35712c048f77c931977
Размер: 1.46 ГБ (1 564 463 104 байт)
Стать Автором раздачи
 
 
Раздал: 100 ГБ
Скачал: 0 байт
Ратио: Seed.
Сообщения: 29984
Зарегистрирован: 09 апр 2015, 23:02


Вернуться в Видео на модерации

Кто сейчас на конференции

Сейчас эту тему просматривают: нет зарегистрированных пользователей и гости: 1

Ресурс не предоставляет электронные версии произведений, а занимается лишь коллекционированием и каталогизацией ссылок, присылаемых и публикуемых на форуме нашими читателями. Если вы являетесь правообладателем какого-либо представленного материала и не желаете чтобы ссылка на него находилась в нашем каталоге, свяжитесь с нами и мы незамедлительно удалим её. Файлы для обмена на трекере предоставлены пользователями сайта, и администрация не несёт ответственности за их содержание. Просьба не заливать файлы, защищенные авторскими правами, а также файлы нелегального содержания!
cron