Новогодний корпоратив / Office Christmas Party (2016) WEB-DLRip [Звук с CamRip]

 
 Статистика раздачи 
Размер: 1.37 ГБ   |  Зарегистрирован: 11 мар 2017, 22:31   |   .torrent скачан: 1 раз
Сидеров: 1  [ 0 байт/сек ]     Личеров: 0  [ 0 байт/сек ]  
  

Новогодний корпоратив / Office Christmas Party (2016) WEB-DLRip [Звук с CamRip]

Сообщение Ressler » 11 мар 2017, 22:31

Новогодний корпоратив / Office Christmas Party (2016) WEB-DLRip

Производство: США, Bluegrass Films, DreamWorks Pictures, DreamWorks SKG
Жанр: Комедия

Режиссер: Джош Гордон, Уилл Спек
Продюсер: Гаймон Кеседи, Дэниэл Раппапорт, Скотт Стубер
Актеры: Джейсон Бейтмен, Оливия Манн, ТиДжей Миллер, Дженнифер Энистон, Кейт МакКиннон, Кортни Б. Вэнс, Джиллиан Белл, Роб Кордри, Ванесса Байер, Рэндолл Парк

Описание:
Когда сестра героя, генеральный директор компании, угрожает брату закрыть его филиал, он устраивает эпическую рождественскую вечеринку, чтобы заполучить большого клиента и спасти фирму. Однако праздник выходит из-под контроля..



Возраст: 18+ (зрителям, достигшим 18 лет. запрещено для детей)
Рейтинг MPAA: R (лицам до 17 лет обязательно присутствие взрослого)
Дата мировой премьеры: 7 декабря 2016
Дата российской премьеры: 8 декабря 2016, «Централ Партнершип»
Дата выхода DVD/Blu-ray релиза: 10 Апреля 2017

Релиз от: KOSHARA

Продолжительность: 01:45:48
Качество видео: WEB-DLRip
Перевод: Дублированный (Звук с CamRip)
Субтитры: Отсутствуют
Реклама: Присутствуют голосовые, видео и текстовые вставки рекламы

Видео: XviD, 720x304, ~1575 kbps
Аудио: AC3, 2 ch, 192 kbps
Код: \Novogodniy.korporativ.2016.Dt.WEB-DLRip.avi
Format                      : AVI
Format/Info                 : Audio Video Interleave
File size                   : 1.37 GiB
Duration                    : 1 h 45 min
Overall bit rate            : 1 849 kb/s
Writing application         : VirtualDubMod 1.5.10.2 (build 2540/release)
Writing library             : VirtualDubMod build 2540/release

Video
ID                          : 0
Format                      : MPEG-4 Visual
Format profile              : Advanced [email protected]
Format settings, BVOP       : 2
Format settings, QPel       : No
Format settings, GMC        : No warppoints
Format settings, Matrix     : Custom
Codec ID                    : XVID
Codec ID/Hint               : XviD
Duration                    : 1 h 45 min
Bit rate                    : 1 575 kb/s
Width                       : 720 pixels
Height                      : 304 pixels
Display aspect ratio        : 2.35:1
Frame rate                  : 24.000 FPS
Color space                 : YUV
Chroma subsampling          : 4:2:0
Bit depth                   : 8 bits
Scan type                   : Progressive
Compression mode            : Lossy
Bits/(Pixel*Frame)          : 0.300
Stream size                 : 1.16 GiB (85%)
Writing library             : XviD 1.2.1 (UTC 2008-12-04)

Audio
ID                          : 1
Format                      : AC-3
Format/Info                 : Audio Coding 3
Mode extension              : CM (complete main)
Format settings, Endianness : Big
Codec ID                    : 2000
Duration                    : 1 h 45 min
Bit rate mode               : Constant
Bit rate                    : 192 kb/s
Channel(s)                  : 2 channels
Channel positions           : Front: L R
Sampling rate               : 48.0 kHz
Frame rate                  : 31.250 FPS (1536 spf)
Bit depth                   : 16 bits
Compression mode            : Lossy
Stream size                 : 145 MiB (10%)
Alignment                   : Split accross interleaves

Скриншоты:



Время раздачи: По мере возможности... (до появления первых 3-5 скачавших)
 
Не забывайте говорить Спасибо. Не уходите с раздачи!   
Торрент: Зарегистрирован [11 мар 2017, 22:31] Для скачивания .torrent
необходима регистрация
Или скачать с помощью
MediaGet
Статус:
Проверен
 
.torrent скачан: 1 раз
Хэш: 630445182acf94ea2203286a91383c3219f0b51c
Размер: 1.37 ГБ (1 467 389 952 байт)
Стать Автором раздачи
 
 
Раздал: 100 ГБ
Скачал: 0 байт
Ратио: Seed.
Сообщения: 29984
Зарегистрирован: 09 апр 2015, 23:02


Вернуться в Видео на модерации

Кто сейчас на конференции

Сейчас эту тему просматривают: нет зарегистрированных пользователей и гости: 1

Ресурс не предоставляет электронные версии произведений, а занимается лишь коллекционированием и каталогизацией ссылок, присылаемых и публикуемых на форуме нашими читателями. Если вы являетесь правообладателем какого-либо представленного материала и не желаете чтобы ссылка на него находилась в нашем каталоге, свяжитесь с нами и мы незамедлительно удалим её. Файлы для обмена на трекере предоставлены пользователями сайта, и администрация не несёт ответственности за их содержание. Просьба не заливать файлы, защищенные авторскими правами, а также файлы нелегального содержания!
cron