Три икса: Мировое господство / xXx: The Return of Xander Cage (2017) WEBRip [H.264/1080p-LQ] [Звук с TS]

 
 Статистика раздачи 
Размер: 4.32 ГБ   |  Зарегистрирован: 11 мар 2017, 22:05   |   .torrent скачан: 0 раз
Сидеров: 1  [ 0 байт/сек ]     Личеров: 0  [ 0 байт/сек ]  
  

Три икса: Мировое господство / xXx: The Return of Xander Cage (2017) WEBRip [H.264/1080p-LQ] [Звук с TS]

Сообщение Ressler » 11 мар 2017, 22:05

Три икса: Мировое господство / xXx: The Return of Xander Cage (2017) WEBRip [H.264/1080p-LQ]

Производство: США, Maple Cage Productions, One Race Films, Revolution Studios
Жанр: Боевик, Приключения, Триллер

Режиссер: Ди Джей Карузо
Продюсер: Глория С. Бордерс, Вин Дизель, Скотт Хемминг
Актеры: Вин Дизель, Руби Роуз, Сэмюэл Л. Джексон, Нина Добрев, Рори МакКанн, Тони Коллетт, Донни Йен, Дипика Падукон, Тони Джа, Гермиона Корфилд

Описание:
Ксандер Кейдж спустя годы возвращается из добровольного изгнания и попадает в безумный водоворот событий. Он собирает команду безбашенных экстремалов, вместе с которыми ему предстоит найти мощнейшее секретное оружие — «Ящик Пандоры». Действовать нужно быстро: за разработкой охотятся опасные головорезы. Ставки в смертельной игре повышаются, когда выясняется, что мировые правительства вовлечены в кровавый заговор, а на кону — судьба мира.



Возраст: 16+ (зрителям, достигшим 16 лет)
Рейтинг MPAA: PG-13 (детям до 13 лет просмотр нежелателен)
Дата мировой премьеры: 19 января 2017
Дата российской премьеры: 19 января 2017 «Централ Партнершип»

Продолжительность: 01:46:18
Качество видео: WEBRip
Перевод: Дублированный (Звук с TS)
Субтитры: Корейские (вшитие неотключаемые)

Видео: AVC/H.264, 1920x800 (2.40:1), 5339 Kbps
Аудио »1: 48 kHz, AC3 Dolby Digital, 2/0 (L,R) ch, ~256 kbps (Русский)
Аудио »2: 48 kHz, AC3 Dolby Digital, 2/0 (L,R) ch, ~256 kbps (Английский)
Код: Выделить всё
Общее
Уникальный идентификатор                 : 198495511598229226975189061859347258579 (0x9554D84F6311DC80984EC1CE2B13DCD3)
Полное имя                               : D:\Три.икса.Мировое.господство.2017.WEBRip.[1080p].NNMClub.mkv
Формат                                   : Matroska
Версия формата                           : Version 2
Размер файла                             : 4,32 Гбайт
Продолжительность                        : 1 ч. 46 м.
Общий поток                              : 5817 Кбит/сек
Название фильма                          : Три.икса.Мировое.господство.2017.WEBRip.[1080p].NNMClub
Дата кодирования                         : UTC 2017-03-10 07:18:13
Программа кодирования                    : mkvmerge v8.3.0 ('Over the Horizon') 64bit
Библиотека кодирования                   : libebml v1.3.1 + libmatroska v1.4.2

Видео
Идентификатор                            : 1
Формат                                   : AVC
Формат/Информация                        : Advanced Video Codec
Профиль формата                          :
Параметр CABAC формата                   : Да
Параметр ReFrames формата                : 4 кадра
Идентификатор кодека                     : V_MPEG4/ISO/AVC
Продолжительность                        : 1 ч. 46 м.
Битрейт                                  : 5339 Кбит/сек
Ширина                                   : 1920 пикселей
Высота                                   : 800 пикселей
Соотношение сторон                       : 2,40:1
Режим частоты кадров                     : Постоянный
Частота кадров                           : 29,970 кадров/сек
Цветовое пространство                    : YUV
Субдискретизация насыщенности            : 4:2:0
Битовая глубина                          : 8 бит
Тип развёртки                            : Прогрессивная
Бит/(Пиксели*Кадры)                      : 0.116
Размер потока                            : 3,85 Гбайт (89%)
Заголовок                                : Три.икса.Мировое.господство.2017.WEBRip.[1080p].NNMClub
Язык                                     : English
Default                                  : Да
Forced                                   : Нет
Цветовой диапазон                        : Limited
Основные цвета                           : BT.709
Характеристики трансфера                 : BT.709

Аудио #1
Идентификатор                            : 2
Формат                                   : AC-3
Формат/Информация                        : Audio Coding 3
Расширение режима                        : CM (complete main)
Параметр Endianness формата              : Big
Идентификатор кодека                     : A_AC3
Продолжительность                        : 1 ч. 46 м.
Вид битрейта                             : Постоянный
Битрейт                                  : 256 Кбит/сек
Каналы                                   : 2 канала
Расположение каналов                     : Front: L R
Частота                                  : 48,0 КГц
Метод сжатия                             : С потерями
Задержка видео                           : -66 мс.
Размер потока                            : 195 Мбайт (4%)
Заголовок                                : TS
Язык                                     : Russian
Default                                  : Да
Forced                                   : Нет

Аудио #2
Идентификатор                            : 3
Формат                                   : AC-3
Формат/Информация                        : Audio Coding 3
Расширение режима                        : CM (complete main)
Параметр Endianness формата              : Big
Идентификатор кодека                     : A_AC3
Продолжительность                        : 1 ч. 46 м.
Вид битрейта                             : Постоянный
Битрейт                                  : 256 Кбит/сек
Каналы                                   : 2 канала
Расположение каналов                     : Front: L R
Частота                                  : 48,0 КГц
Метод сжатия                             : С потерями
Задержка видео                           : -66 мс.
Размер потока                            : 195 Мбайт (4%)
Заголовок                                : Original
Язык                                     : English
Default                                  : Нет
Forced                                   : Нет

Скриншоты:




Время раздачи: 24/7 (до появления первых 3-5 скачавших)
 
Не забывайте говорить Спасибо. Не уходите с раздачи!   
Торрент: Зарегистрирован [11 мар 2017, 22:05] Для скачивания .torrent
необходима регистрация
Или скачать с помощью
MediaGet
Статус:
Проверен
 
.torrent скачан: 0 раз
Хэш: fb82c79bca02030b20e5d207773110b326f021d1
Размер: 4.32 ГБ (4 638 410 543 байт)
Стать Автором раздачи
 
 
Раздал: 100 ГБ
Скачал: 0 байт
Ратио: Seed.
Сообщения: 29984
Зарегистрирован: 09 апр 2015, 23:02


Вернуться в Видео на модерации

Кто сейчас на конференции

Сейчас эту тему просматривают: нет зарегистрированных пользователей и гости: 1

Ресурс не предоставляет электронные версии произведений, а занимается лишь коллекционированием и каталогизацией ссылок, присылаемых и публикуемых на форуме нашими читателями. Если вы являетесь правообладателем какого-либо представленного материала и не желаете чтобы ссылка на него находилась в нашем каталоге, свяжитесь с нами и мы незамедлительно удалим её. Файлы для обмена на трекере предоставлены пользователями сайта, и администрация не несёт ответственности за их содержание. Просьба не заливать файлы, защищенные авторскими правами, а также файлы нелегального содержания!
cron