Зверопой / Sing (2016) TS

 
 Статистика раздачи 
Размер: 1.36 ГБ   |  Зарегистрирован: 26 дек 2016, 17:35   |   .torrent скачан: 2 раз
Сидеров: 1  [ 0 байт/сек ]     Личеров: 0  [ 0 байт/сек ]  
  

Зверопой / Sing (2016) TS

Сообщение explosiveone » 26 дек 2016, 17:35

Зверопой / Sing (2016) TS

Производство: США, Великобритания
Жанр: Комедия, Семейный

Режиссер: Кристоф Лурдэле, Гарт Дженнингс
Продюсер: Джанет Хили, Бретт Хоффман, Игорь Хайт
Актеры: Мэттью МакКонахи, Риз Уизерспун, Сет МакФарлейн, Скарлетт Йоханссон, Джон Си Райли, Тэрон Эджертон, Тори Келли, Дженнифер Сондерс, Дженнифер Хадсон, Гарт Дженнингс

Описание:
В городе, где живут одни звери, стартовал конкурс музыкальных талантов, грандиозное шоу, где каждому выпадает шанс стать знаменитым. Все хотят ощутить популярность, известность и богатство, тем более, что приз составляет сто тысяч. Слониха была застенчивой и всё пытается перебороть страх сцены. У гориллы семейство бандитов, но он хочет стать певцом. Свиньи, кролики, быки все прелагают сверх усилия к гала-концерту, где и определиться победитель. Все переживания, душевный надрыв, стремление и сверх усилия, в общем кто скажет, что они не как настоящие люди?


Возраст: 6+ (зрителям, достигшим 6 лет)
Рейтинг MPAA: PG (рекомендуется присутствие родителей)
Дата мировой премьеры: 11 сентября 2016
Дата российской премьеры: 2 марта 2017, «UPI»

Релиз от: Студия Колобок

Продолжительность: 01:40:46
Качество видео: TS
Перевод: Двуголосый закадровый, любительский
Озвучка / Автор перевода: DeadSno & den904 / Студия Колобок
Вид субтитров: Отсутствуют
Реклама: Присутствуют аудио и текстовые вставки рекламы

Видео: Xvid, 720x400, ~1727 Kbps
Аудио: AC3, 2 ch, 192 Kbps, CBR
Код: Выделить всё
Общее
Полное имя                               : D:\KINO 3\AZVEREL\Zweropoi.avi
Формат                                   : AVI
Формат/Информация                        : Audio Video Interleave
Размер файла                             : 1,36 Гбайт
Продолжительность                        : 1 ч. 40 м.
Общий поток                              : 1929 Кбит/сек
Программа кодирования                    : VirtualDubMod 1.5.10.3 | [url=http://www.virtualdub-fr.org]www.virtualdub-fr.org[/url] || (build 2550/release)
Библиотека кодирования                   : VirtualDubMod build 2550/release

Видео
Идентификатор                            : 0
Формат                                   : MPEG-4 Visual
Профиль формата                          : Advanced [email protected]
Параметр BVOP формата                    : 2
Параметр QPel формата                    : Нет
Параметр GMC формата                     : Без точки перехода
Параметр матрицы формата                 : Выборочная
Идентификатор кодека                     : XVID
Идентификатор кодека/Подсказка           : XviD
Продолжительность                        : 1 ч. 40 м.
Битрейт                                  : 1727 Кбит/сек
Ширина                                   : 720 пикселей
Высота                                   : 400 пикселей
Соотношение сторон                       : 16:9
Частота кадров                           : 25,000 кадров/сек
Цветовое пространство                    : YUV
Субдискретизация насыщенности            : 4:2:0
Битовая глубина                          : 8 бит
Тип развёртки                            : Прогрессивная
Метод сжатия                             : С потерями
Бит/(Пиксели*Кадры)                      : 0.240
Размер потока                            : 1,22 Гбайт (90%)
Библиотека кодирования                   : XviD 1.2.1 (UTC 2008-12-04)

Аудио
Идентификатор                            : 1
Формат                                   : AC-3
Формат/Информация                        : Audio Coding 3
Расширение режима                        : CM (complete main)
Параметр Endianness формата              : Big
Идентификатор кодека                     : 2000
Продолжительность                        : 1 ч. 40 м.
Вид битрейта                             : Постоянный
Битрейт                                  : 192 Кбит/сек
Каналы                                   : 2 канала
Расположение каналов                     : Front: L R
Частота                                  : 48,0 КГц
Частота кадров                           : 31,250 кадров/сек (1536 spf)
Метод сжатия                             : С потерями
Задержка видео                           : 24 мс.
Размер потока                            : 138 Мбайт (10%)
Выравнивание                             : Разделение по промежуткам
Продолжительность промежутка             : 40  мс. (1,00 видеокадр)
Время предзагрузки промежутка            : 500  мс.

Скриншоты:




Время раздачи: С 09:00 до 23:30 (до появления первых 3-5 скачавших)
 
Не забывайте говорить Спасибо. Не уходите с раздачи!   
Торрент: Зарегистрирован [26 дек 2016, 17:35] Для скачивания .torrent
необходима регистрация
Или скачать с помощью
MediaGet
Статус:
Проверен
 
.torrent скачан: 2 раз
Хэш: f86c32433aa26d0f27fe9026bf9aa9b40bfad5c5
Размер: 1.36 ГБ (1 457 995 776 байт)
Стать Автором раздачи
 
 
Раздал: 100 ГБ
Скачал: 0 байт
Ратио: Seed.
Сообщения: 96975
Зарегистрирован: 09 апр 2015, 22:31


Вернуться в Видео на модерации

Кто сейчас на конференции

Сейчас эту тему просматривают: нет зарегистрированных пользователей и гости: 1

Ресурс не предоставляет электронные версии произведений, а занимается лишь коллекционированием и каталогизацией ссылок, присылаемых и публикуемых на форуме нашими читателями. Если вы являетесь правообладателем какого-либо представленного материала и не желаете чтобы ссылка на него находилась в нашем каталоге, свяжитесь с нами и мы незамедлительно удалим её. Файлы для обмена на трекере предоставлены пользователями сайта, и администрация не несёт ответственности за их содержание. Просьба не заливать файлы, защищенные авторскими правами, а также файлы нелегального содержания!
cron